Info

Forrest Gump


8.8
IMDB: 8.8/10 1,334,127 votes

Durata: 142 min

Released:

Anno: 06 Jul 1994

Direttore:

Premi: Won 6 Oscars. Another 39 wins & 65 nominations.

Budget: 55000000$

Incassi: 677945399$

Stato: Released

Paese: USA

Tagline: Il mondo non ti sembrerà più lo stesso dopo averlo visto attraverso gli occhi di Forrest Gump.

Cast:




Seduto sulla panchina ad un bus-stop di Savannah, Forrest Gump ricorda la sua infanzia di bimbo con problemi mentali e fisici. Solo la mamma lo accetta per quello che è, e solo la piccola Jenny Curran lo fa sedere accanto a sé sull’autobus della scuola. Sarà lei a incitarlo, per fuggire a tre compagnetti violenti, a correre, liberando così le gambe dalla protesi. Attraverso trent’anni di storia americana vista con gli occhi della semplicità e dell’innocenza, Forrest diventa un campione universitario di football, mentre è sempre più innamorato di Jenny che però lo considera un fratello. Assiste ai disordini razziali in Alabama ed incontra Kennedy poco prima dell’assassinio. Si arruola quindi nell’esercito, dove fa amicizia con il nero Bubba, un pescatore di gamberi che gli comunica la sua passione. Dopo un fugace incontro con Jenny che canta a Memphis, Gump va a combattere in Vietnam.

Trailer


Upload on Youtube

Info File

General
Unique ID : 222573886003264065813760168647304107864 (0xA7722BD30EB7B8FDAF26F4E3CF275758)
Complete name : C:\Users\Administrator\Downloads\Forrest Gump\Forrest Gump (1994) BDRip 720p HEVC ITA ENG AC3 ITA ENG Sub PirateMKV.mkv
Format : Matroska
Format version : Version 4 / Version 2
File size : 3.89 GiB
Duration : 2h 22mn
Overall bit rate : 3 922 Kbps
Movie name : Forrest Gump (1994) - PirateMKV
Encoded date : UTC 2016-03-21 16:21:54
Writing application : mkvmerge v8.9.0 ('Father Daughter') 64bit
Writing library : libebml v1.3.3 libmatroska v1.4.4 / Lavf57.28.102

Video
ID : 1
Format : HEVC
Format/Info : High Efficiency Video Coding
Format profile : [email protected]@Main
Codec ID : V_MPEGH/ISO/HEVC
Duration : 2h 22mn
Bit rate : 2 640 Kbps
Width : 1 280 pixels
Height : 544 pixels
Display aspect ratio : 2.35:1
Frame rate mode : Constant
Frame rate : 23.976 (24000/1001) fps
Color space : YUV
Chroma subsampling : 4:2:0
Bit depth : 8 bits
Bits/(Pixel*Frame) : 0.158
Stream size : 2.62 GiB (67%)
Writing library : x265 1.9:[Windows][GCC 5.2.0][64 bit] 8bit
Encoding settings : wpp / ctu=64 / min-cu-size=8 / max-tu-size=32 / tu-intra-depth=3 / tu-inter-depth=3 / me=2 / subme=4 / merange=57 / no-rect / no-amp / max-merge=3 / temporal-mvp / no-early-skip / rdpenalty=0 / no-tskip / no-tskip-fast / strong-intra-smoothing / no-lossless / no-cu-lossless / no-constrained-intra / fast-intra / open-gop / no-temporal-layers / interlace=0 / keyint=250 / min-keyint=23 / scenecut=40 / rc-lookahead=40 / lookahead-slices=0 / bframes=8 / bframe-bias=0 / b-adapt=2 / ref=5 / limit-refs=1 / limit-modes / weightp / weightb / aq-mode=1 / qg-size=32 / aq-strength=2.00 / cbqpoffs=0 / crqpoffs=0 / rd=4 / psy-rd=1.00 / rdoq-level=0 / psy-rdoq=0.00 / signhide / deblock=-1:-1 / sao / no-sao-non-deblock / b-pyramid / no-cutree / no-intra-refresh / rc=crf / crf=21.5 / qcomp=0.60 / qpmin=0 / qpmax=51 / qpstep=4 / ipratio=1.40 / pbratio=1.30
Language : English
Default : Yes
Forced : No
Color range : Limited
Matrix coefficients : BT.709

Audio #1
ID : 2
Format : AC-3
Format/Info : Audio Coding 3
Mode extension : CM (complete main)
Format settings, Endianness : Big
Codec ID : A_AC3
Duration : 2h 22mn
Bit rate mode : Constant
Bit rate : 640 Kbps
Channel(s) : 6 channels
Channel positions : Front: L C R, Side: L R, LFE
Sampling rate : 48.0 KHz
Frame rate : 31.250 fps (1536 spf)
Compression mode : Lossy
Stream size : 651 MiB (16%)
Title : AC3 5.1
Language : Italian
Default : Yes
Forced : No

Audio #2
ID : 3
Format : AC-3
Format/Info : Audio Coding 3
Mode extension : CM (complete main)
Format settings, Endianness : Big
Codec ID : A_AC3
Duration : 2h 22mn
Bit rate mode : Constant
Bit rate : 640 Kbps
Channel(s) : 6 channels
Channel positions : Front: L C R, Side: L R, LFE
Sampling rate : 48.0 KHz
Frame rate : 31.250 fps (1536 spf)
Compression mode : Lossy
Stream size : 651 MiB (16%)
Title : AC3 5.1
Language : English
Default : No
Forced : No

Trackers

http://tracker.istole.it:80/
http://tracker.publicbt.com:80/
http://tracker.tntvillage.scambioetico.org:2710/scrape
http://open.demonii.com:1337/scrape
http://tracker.coppersurfer.tk:6969/scrape
http://tracker.openbittorrent.com/scrape