Info




Budget: 18000000$

Incassi: 476684675$

Stato: Released

Tagline: Quando i McCallister partirono per le vacanze dimenticarono un piccolo dettaglio...Kevin

Cast:




Nella fretta di prendere l’aereo diretto a Parigi dove vogliono passare le vacanze di Natale, i McCallister, famiglia numerosa, dimenticano Kevin di otto anni a casa. Due malviventi cercano di entrare nella villetta per fare razzia. Peggio per loro…………………..

Trailer


Upload on Youtube

Info File

Video
ID : 0
Format : MPEG-4 Visual
Format profile : [email protected]
Format settings, BVOP : No
Format settings, QPel : No
Format settings, GMC : No warppoints
Format settings, Matrix : Default (H.263)
Codec ID : XVID
Codec ID/Hint : XviD
Duration : 1h 42mn
Bit rate : 1 495 Kbps
Width : 720 pixels
Height : 386 pixels
Display aspect ratio : 16:9
Frame rate : 23.976 fps
Color space : YUV
Chroma subsampling : 4:2:0
Bit depth : 8 bits
Scan type : Progressive
Compression mode : Lossy
Bits/(Pixel*Frame) : 0.224
Stream size : 1.07 GiB (62%)
Writing library : XviD 65

Audio #1
ID : 1
Format : AC-3
Format/Info : Audio Coding 3
Mode extension : CM (complete main)
Codec ID : 2000
Duration : 1h 42mn
Bit rate mode : Constant
Bit rate : 448 Kbps
Channel(s) : 6 channels
Channel positions : Front: L C R, Side: L R, LFE
Sampling rate : 48.0 KHz
Bit depth : 16 bits
Compression mode : Lossy
Stream size : 330 MiB (19%)
Alignment : Split accross interleaves
Interleave, duration : 42 ms (1.00 video frame)
Interleave, preload duration : 500 ms

Trackers

http://tracker.istole.it:80/
http://tracker.publicbt.com:80/
http://tracker.tntvillage.scambioetico.org:2710/scrape
http://open.demonii.com:1337/scrape
http://tracker.coppersurfer.tk:6969/scrape
http://tracker.openbittorrent.com/scrape

Torrent correlati

Torrent Name Dimm. Creato Seed Leech
0 bytes 2 anni fa 0 0
1.37 Gb 2 anni fa 3 1
1.37 Gb 2 anni fa 2 0
693.97 Mb 2 anni fa 1 2
699.95 Mb 2 anni fa 0 6